1. Если Вы видите это сообщение, значит, вы ещё не зарегистрировались на нашем форуме.

    Зарегистрируйтесь, если вы хотите принять участие в обсуждениях. Перед регистрацией примите к сведению:
    1. Не регистрируйтесь с никами типа asdfdadhgd, 354621 и тому подобными, не несущими смысловой нагрузки (ник должен быть читаемым!): такие пользователи будут сразу заблокированы!
    2. Не регистрируйте больше одной учётной записи. Если у вас возникли проблемы при регистрации, то вы можете воспользоваться формой обратной связи внизу страницы.
    3. Регистрируйтесь с реально существующими E-mail адресами, иначе вы не сможете завершить регистрацию.
    4. Обязательно ознакомьтесь с правилами поведения на нашем форуме, чтобы избежать дальнейших конфликтов и непонимания.
    С уважением, администрация форума Old-Games.RU
    Скрыть объявление
  2. Пожалуйста, внимательно прочитайте правила раздела.

Конструктор "Сделай Сам"

Тема в разделе "PC Игры", создана пользователем Dalain, 15 июн 2006.

  1. Dalain

    Dalain

    Регистрация:
    27 фев 2005
    Сообщения:
    125
    Вот такая беда - есть образ в ISO (игры в которой обрезаны аудиодорожки путем перекатывания c диска в этот долбанный ISO вместо mdf/mds или bin/cue), есть mp3 треки с аудио для него. Нужно сделать из этого bin/cue образ с аудиотреками. Внимание вопрос - как это сделать...Интересуют мнения только тех, кто этим уже занимался...
     
  2.  
  3. Evil_Wizard Planewalker

    Evil_Wizard

    Регистрация:
    16 ноя 2004
    Сообщения:
    2.477
    Есть сомнения в возможности проделывания такой операции в принципе. Помнится сам хотел сделать, что-то подобное для одной вещи, но сказали, что этого сделать нельзя в принципе.
     
  4. Dimouse King of Mice

    Dimouse

    Администратор Переводчик

    Регистрация:
    18 апр 2003
    Сообщения:
    29.390
    А что тут сложного? Я делаю так - беру Неро и записываю в миксед моде файлы и аудио-треки, главное чтобы они точно по длине совпадали с оригиналом.
     
  5. Редиска (нехороший человек)

    Редиска (нехороший человек)

    Регистрация:
    30 дек 2005
    Сообщения:
    305
    как правило файлы инсталяции лежат в архиве Data(1,2,3,4).cab .
    Способ 1(для тех кто хочет 3 дня бится головой об стену а потом кайфовать)

    Файл .ISO распаковывается через WinRar.
    Находится редактор .САВ архивов, добавляются трэки из игры в папку(в архиве) в которой по идее должны быть треки(типа папки Music или чёто типа того). Затем то что получилось загоняешь на CD-RW и с помощью Alcohol120% срезаешь bin\cue.
    НО! Если игра рипаная а не коррапченая то см. Способ 2.

    Способ 2(для тех кто хочет кайфовать 3 дня а потом бится головой об стену)

    Инсталится игра. Куда надо добавляются файлы с музыкой.

    Способ 3(радикальный)

    Берётся прога для создания инсталляторов. В неё пихается уже заинсталеная игра и прописывается какие ключи реестра добавлять. Затем полученый инсталятор пихаем на CD-RW и с помощью Alcohol120% срезаем bin\cue. (Я так из финской LOTR:BFTME сделал English версию)
     
  6. Evil_Wizard Planewalker

    Evil_Wizard

    Регистрация:
    16 ноя 2004
    Сообщения:
    2.477
    Интересно, как много я не знаю :-) Жаль уже не помню, кто меня ввел в такое заблуждение, пытался я в одно время прикрутить треки к одной игрухе, да так и забил.
     
  7. Dalain

    Dalain

    Регистрация:
    27 фев 2005
    Сообщения:
    125
    Что-то я немного не понял...Ты имеешь ввиду что я беру, к примеру UltraIso и загоняю с его помощью в образ дополнительные файлы (в данном случае mp3)? Если так, то друг мой это было бы очень просто...Мне не нужно mp3 файлы загонять в исошник...Мне нужно сделать так, чтобы из этих mp3 файлов сделать обычные аудиотреки (способные проигрываться на CD аудиоплеере) и запихать их в образ, чтобы потом при записи с этого образа на болванку эти треки можно было бы послушать на этом самом пресловутом аудиоплеере...А загонять файлы в образы - это, право же примитивный моветон...
    Если я не прав, то объясни в чем, может просто я тебя не понял и ты имеешь ввиду то, что мне нужно...но задним органом чувств чую что прав всё таки я.....
     
  8. Dimouse King of Mice

    Dimouse

    Администратор Переводчик

    Регистрация:
    18 апр 2003
    Сообщения:
    29.390
    Редиска просто как я понимаю ошибочно полагает что аудиотреки записываются в какие-то файлы на диске, ничего страшного, все мы когда-то были компьютерно безграмотными:) Dalain, читай что я написал, работает 100%.
     
  9. Редиска (нехороший человек)

    Редиска (нехороший человек)

    Регистрация:
    30 дек 2005
    Сообщения:
    305
    Способ нумбер 4 проверен и работает.
     
  10. CaH51o Target lifeform

    CaH51o

    Регистрация:
    30 ноя 2004
    Сообщения:
    1.480
    Редиска (нехороший человек),
    у тебя только 3 способа.:lol:

    А в iso разве аудио треки не записываются? Тогда может как-нибудь для него cue состряпать?
     
  11. Редиска (нехороший человек)

    Редиска (нехороший человек)

    Регистрация:
    30 дек 2005
    Сообщения:
    305
  12. R4kk00n Benched arcade playa

    R4kk00n

    Модератор

    Регистрация:
    28 мар 2005
    Сообщения:
    7.722
    Способ Dimouse'а самый простой и рабочий на 100%. Единственный его недостаток — в результате получается файл .nrg. Если этот формат кого-то смущает, можно дальше сделать из него cue/bin: монтируем .nrg в вирутальный привод и снимаем с него новый образ, уже в cue/bin (CDRWIN'ом, Алкоголем, whatever).
    Если нет возможности/желания ставить/использовать Nero — всё можно сделать руками. Сначала раскодировать mp3 в wav. Потом написать в чём угодно cue-шыт вот такого вида:
    Код:
    FILE "Track 01.iso" BINARY
      TRACK 01 MODE1/2048
        INDEX 01 00:00:00
    FILE "Track 02.wav" WAVE
      TRACK 02 AUDIO
        INDEX 01 00:00:00
    FILE "Track 03.wav" WAVE
      TRACK 03 AUDIO
        INDEX 01 00:00:00
    ...
    Правда, чтобы склеить это обратно в один файл, всё равно нужно будет монтировать cue-sheet в виртуальный привод и снимать с него образ. Или пользоваться прогой навроде SCDtoolz (когда я последний раз ей пользовался, мне не понравился результат). Ещё, наверное, можно IsoBuster использовать для склейки...
     
    Последнее редактирование: 15 июн 2006
  13. spitefultomato Археолог

    spitefultomato

    Регистрация:
    23 апр 2005
    Сообщения:
    2.689
    Способ Dimouse'а - единственный, который позволяет сохранить целостность оригинального содержимого диска. Зачем что-то мутить с инсталлерами? И нафига переснимать образ, кому мешает формат *.nrg, если Алкоголь читает все?
     
  1. На этом сайте используются файлы cookie, чтобы персонализировать содержимое, хранить Ваши предпочтения и держать Вас авторизованным в системе, если Вы зарегистрировались.
    Продолжая пользоваться данным сайтом, Вы соглашаетесь на использование нами Ваших файлов cookie.
    Скрыть объявление